Inicio > Descargas > Juego de tronos – Temporada 1 [BDrip m-720p][Castellano 5.1][900MB][1Link/Multi]

Juego de tronos – Temporada 1 [BDrip m-720p][Castellano 5.1][900MB][1Link/Multi]

Viernes, 27 de abril de 2012 Dejar un comentario Ir a comentarios
avancejuegodetronos Juego de tronos   Temporada 1 [BDrip m 720p][Castellano 5.1][900MB][1Link/Multi]

ficha2d Juego de tronos   Temporada 1 [BDrip m 720p][Castellano 5.1][900MB][1Link/Multi]

TEMPORADA: 1
AÑO: 2011
PAÍS: USA
DIRECTOR: David Benioff (Creator), D.B. Weiss (Creator), Timothy Van Patten, Brian Kirk, Daniel Minahan, Alan Taylor
GUIÓN: David Benioff, D.B. Weiss, Bryan Cogman, Jane Espenson, George R. R. Martin (Novelas: George R. R. Martin)
MÚSICA: Ramin Djawadi
FOTOGRAFÍA: Matt Jensen, Marco Pontecorvo, Alik Sakharov
REPARTO: Sean Bean, Lena Headey, Michelle Fairley, Peter Dinklage, Emilia Clarke, Nikolaj Coster-Waldau, Mark Addy, Kit Harington, Aidan Gillen, Iain Glen, Maisie Williams, Jack Gleeson, Sophie Turner, Jason Momoa, Harry Lloyd, Richard Madden, Julian Glover, Alfie Allen, Ron Donachie, Isaac Hempstead Wright, Charles Dance, Natalia Tena, Peter Vaughan, Conleth Hill, Donald Sumpter, Rory McCann, Amrita Acharia, Susan Brown, Jerome Flynn, Natalie Dormer, Ian McElhinney, Carice van Houten, Liam Cunningham, Stephen Dillane
GÉNERO: Aventuras. Fantástico | Fantasía medieval

sinopsis2j Juego de tronos   Temporada 1 [BDrip m 720p][Castellano 5.1][900MB][1Link/Multi]

La historia de Canción de Hielo y Fuego se sitúa en un mundo ficticio medieval. Hay tres líneas argumentales en la serie: la crónica de la guerra civil dinástica por el control de Poniente entre varias familias nobles; la creciente amenaza de los Otros, apenas contenida por un inmenso muro de hielo que protege el norte de Poniente; y el viaje de Daenerys Targaryen, la hija exiliada del rey que fue asesinado en otra guerra civil hace quince años, quien busca regresar a Poniente a reclamar sus derechos.

mediainfo2 Juego de tronos   Temporada 1 [BDrip m 720p][Castellano 5.1][900MB][1Link/Multi]

estrellay Juego de tronos   Temporada 1 [BDrip m 720p][Castellano 5.1][900MB][1Link/Multi]Formato: Matroska
estrellay Juego de tronos   Temporada 1 [BDrip m 720p][Castellano 5.1][900MB][1Link/Multi]Resolucion: 1280 x 720
estrellay Juego de tronos   Temporada 1 [BDrip m 720p][Castellano 5.1][900MB][1Link/Multi]Tamaño: 900 MB
estrellay Juego de tronos   Temporada 1 [BDrip m 720p][Castellano 5.1][900MB][1Link/Multi]Audio 1: Castellano AC3 5.1 384 Kbps
estrellay Juego de tronos   Temporada 1 [BDrip m 720p][Castellano 5.1][900MB][1Link/Multi]Subtítulos:Castellano Forzados con estilos + Castellano forzados + Castellano Completos +Castellano estilos + Inglés completos + Inglés estilos

MEDIA INFO

Código:

Format                                   : Matroska
Format version                           : Version 2
File size                                : 968 MiB
Duration                                 : 1h 1mn
Overall bit rate                         : 2 196 Kbps
Encoded date                             : UTC 2012-04-25 15:41:35
Writing application                      : mkvmerge v5.5.0 ('Healer') built on Apr  6 2012 21:43:24
Writing library                          : libebml v1.2.3 + libmatroska v1.3.0
Attachment                               : Yes / Yes / Yes / Yes / Yes / Yes / Yes

Video
ID                                       : 1
Format                                   : AVC
Format/Info                              : Advanced Video Codec
Format profile                           : Main@L3.1
Format settings, CABAC                   : No
Format settings, ReFrames                : 4 frames
Codec ID                                 : V_MPEG4/ISO/AVC
Duration                                 : 1h 1mn
Bit rate                                 : 1 800 Kbps
Width                                    : 1 280 pixels
Height                                   : 720 pixels
Display aspect ratio                     : 16:9
Frame rate mode                          : Variable
Frame rate                               : 23.976 fps
Color space                              : YUV
Chroma subsampling                       : 4:2:0
Bit depth                                : 8 bits
Scan type                                : Progressive
Bits/(Pixel*Frame)                       : 0.081
Stream size                              : 779 MiB (81%)
Title                                    : **Ripeado por Niny**
Writing library                          : x264 core 120
Language                                 : English
Default                                  : Yes
Forced                                   : No
Color primaries                          : BT.709-5, BT.1361, IEC 61966-2-4, SMPTE RP177
Transfer characteristics                 : BT.709-5, BT.1361
Matrix coefficients                      : BT.709-5, BT.1361, IEC 61966-2-4 709, SMPTE RP177

Audio
ID                                       : 2
Format                                   : AC-3
Format/Info                              : Audio Coding 3
Mode extension                           : CM (complete main)
Codec ID                                 : A_AC3
Duration                                 : 1h 1mn
Bit rate mode                            : Constant
Bit rate                                 : 384 Kbps
Channel(s)                               : 6 channels
Channel positions                        : Front: L C R, Side: L R, LFE
Sampling rate                            : 48.0 KHz
Bit depth                                : 16 bits
Compression mode                         : Lossy
Stream size                              : 169 MiB (17%)
Title                                    : Castellano 5.1
Language                                 : Spanish
Default                                  : Yes
Forced                                   : Yes

Text #1
ID                                       : 3
Format                                   : ASS
Codec ID                                 : S_TEXT/ASS
Codec ID/Info                            : Advanced Sub Station Alpha
Compression mode                         : Lossless
Title                                    : Forzados con estilos
Language                                 : Spanish
Default                                  : Yes
Forced                                   : Yes

Text #2
ID                                       : 4
Format                                   : ASS
Codec ID                                 : S_TEXT/ASS
Codec ID/Info                            : Advanced Sub Station Alpha
Compression mode                         : Lossless
Title                                    : Español con estilos
Language                                 : Spanish
Default                                  : No
Forced                                   : No

Text #3
ID                                       : 5
Format                                   : UTF-8
Codec ID                                 : S_TEXT/UTF8
Codec ID/Info                            : UTF-8 Plain Text
Title                                    : Español planos
Language                                 : Spanish
Default                                  : No
Forced                                   : No

Text #4
ID                                       : 6
Format                                   : ASS
Codec ID                                 : S_TEXT/ASS
Codec ID/Info                            : Advanced Sub Station Alpha
Compression mode                         : Lossless
Title                                    : ingles con estilos
Language                                 : English
Default                                  : No
Forced                                   : No

Text #5
ID                                       : 7
Format                                   : UTF-8
Codec ID                                 : S_TEXT/UTF8
Codec ID/Info                            : UTF-8 Plain Text
Title                                    : Ingles planos
Language                                 : English
Default                                  : No
Forced                                   : No

4a8fa00c8ebd40936b7f1eb620e37fe1 Juego de tronos   Temporada 1 [BDrip m 720p][Castellano 5.1][900MB][1Link/Multi]c46546bd864ac28696ed8559281d2a86 Juego de tronos   Temporada 1 [BDrip m 720p][Castellano 5.1][900MB][1Link/Multi]

descargao Juego de tronos   Temporada 1 [BDrip m 720p][Castellano 5.1][900MB][1Link/Multi]

 Juego de tronos   Temporada 1 [BDrip m 720p][Castellano 5.1][900MB][1Link/Multi]
shareonlinelogo45px Juego de tronos   Temporada 1 [BDrip m 720p][Castellano 5.1][900MB][1Link/Multi]
170 1 Juego de tronos   Temporada 1 [BDrip m 720p][Castellano 5.1][900MB][1Link/Multi]
logo Juego de tronos   Temporada 1 [BDrip m 720p][Castellano 5.1][900MB][1Link/Multi]

Todos los capitulos en 1Link dentro del contenedor

Código:


http://linkcrypt.ws/dir/51gxa6rlh44hn26

MP SI SE CAEN LOS LINKS




VN:F [1.9.22_1171]
Rating: 0.0/10 (0 votes cast)
  1. Sin comentarios aún.
  1. Sin trackbacks aún.

Featuring Advanced Search Functions plugin by YD